» » Al Jarreau - This Time

Al Jarreau - This Time FLAC download

  • Performer: Al Jarreau
  • Title: This Time
  • Size FLAC ver: 1704 mb
  • Country: US
  • Released: 1987
  • Style: Soul-Jazz, Fusion, Rhythm & Blues, Latin Jazz
  • Other formats: WAV AUD FLAC AIFF AA MP2 AUD
  • Genre: Jazz / Funk and Soul
  • Rating: 4.4 of 5
Al Jarreau - This Time FLAC download
Al Jarreau - This Time FLAC download

Tracklist Hide Credits

1 Never Givin' Up
Acoustic Guitar [Gut-string] – Oscar Neves*Arranged By [Rhythm] – Al Jarreau, Greg Mathieson, Tom CanningBacking Vocals, Vocals [Percussion] – Al JarreauBass – Abe Laboriel*Drums – Ralph HumphreyElectric Guitar, Programmed By [Synthesizer] – Jay GraydonFlugelhorn, Arranged By [Horns] – Jerry HeySynthesizer [Strings], Piano [Acoustic] – Greg MathiesonWritten-By – Al Jarreau, Tom Canning
3:56
2 Gimme What You Got
Arranged By [Rhythm] – Al Jarreau, Jay Graydon, Tom CanningBacking Vocals – Al JarreauBass – Abe Laboriel*Drums – Carlos VegaElectric Guitar, Programmed By [Synthesizer] – Jay GraydonElectric Piano [Fender Rhodes] – Tom CanningFlugelhorn – Jerry HeyPiano – David FosterSynthesizer [String] – Michael OmartianWritten-By – Al Jarreau, Tom Canning
3:43
3 Love Is Real
Arranged By [Horns], Trumpet – Jerry HeyArranged By [Rhythm] – Al Jarreau, Jay Graydon, Tom KellockBacking Vocals – Al JarreauBass – Abe Laboriel*Drums – Carlos VegaElectric Guitar – Dean ParksElectric Guitar, Programmed By [Synthesizer] – Jay GraydonElectric Piano [Fender Rhodes] – David FosterPiano – Tom CanningSynthesizer – Larry WilliamsSynthesizer [String] – Greg MathiesonTrombone – Bill Reichenbach Trumpet – Chuck FindleyWritten-By – Al Jarreau, Tom Canning, Tom Kellock
4:23
4 Alonzo
Arranged By [Rhythm] – Al Jarreau, Jay GraydonBass – Abe Laboriel*Drums, Percussion – Ralph HumphreyElectric Piano [Fender Rhodes] – Tom CanningSynthesizer [String] – Greg MathiesonVocals [Percussion] – Al JarreauWritten-By – Al Jarreau
5:25
5 (If I Could Only) Change Your Mind
Arranged By [Rhythm] – Tom CanningBacking Vocals – Al JarreauBass – Abe Laboriel*Drums – Ralph HumphreyElectric Guitar – Dean ParksElectric Guitar, Programmed By [Synthesizer] – Jay GraydonHarmonica [Solo] – Les Thompson Piano, Electric Piano [Fender Rhodes] – Tom CanningSynthesizer [String] – Greg MathiesonWritten-By – Allee Willis, Tom Canning
4:16
6 Spain (I Can Recall)
Bass – Abe Laboriel*Drums – Steve GaddElectric Piano [Fender Rhodes], Synthesizer – Larry WilliamsWritten-By – Al Jarreau, Artie Maren, Chick Corea
6:31
7 Distracted
Arranged By [Horns], Trumpet, Flugelhorn – Jerry HeyArranged By [Rhythm] – Al Jarreau, Jay GraydonBacking Vocals – Al JarreauBass – Abe Laboriel*Drums – Steve GaddElectric Guitar – Jay GraydonElectric Piano [Fender Rhodes] – George DukeSaxophone [Solo] – Lon PriceSynthesizer – Steve GeorgeTrombone – Bill Reichenbach Trumpet – Chuck FindleyWritten-By – Al Jarreau
5:51
8 Your Sweet Love
Arranged By [Rhythm] – Al Jarreau, Jay Graydon, Tom CanningBass – Abe Laboriel*Drums – Steve GaddElectric Guitar, Programmed By [Synthesizer] – Jay GraydonFlugelhorn – Jerry HeyPiano, Electric Piano [Fender Rhodes], Bells – Tom CanningSynthesizer – Larry WilliamsSynthesizer [String] – Michael OmartianWritten-By – Al Jarreau, Tom Canning, Tom Kellock
4:13
9 (A Rhyme) This Time
Acoustic Guitar [Gut-string] – Earl KlughArranged By [Rhythm] – Al Jarreau, Earl Klugh, Jay GraydonBass – Abe Laboriel*Drums – Ralph HumphreyElectric Piano [Fender Rhodes] – David FosterWritten-By – Al Jarreau, Earl Klugh
3:42

Credits

  • Engineer [Basic Tracks Second Engineer] – Debbie Thompson
  • Engineer [Basic Tracks] – Joe Bogan
  • Mastered By [Originally] – Bernie Grundman
  • Mixed By, Engineer [Overdubs] – Jay Graydon
  • Producer – Jay Graydon
  • Vocals – Al Jarreau

Notes

℗&©1980 Warner Bros. Records Inc. a Warner Communications Company
Basic tracks recorded at Dawnbreaker Studios, San Fernando, CA
Remix and overdubs recorded at Garden Rake Studios
Originally Mastered at A&M Records
Pre-Mastering by WCI Record Group.
Made in USA

Barcode and Other Identifiers

  • Barcode: 0 7599-23434-2

Other versions

Category Artist Title (Format) Label Category Country Year
BSK 3434 Al Jarreau This Time ‎(LP, Album, Jac) Warner Bros. Records BSK 3434 US 1980
26.039 Al Jarreau This Time ‎(LP, Album) Warner Bros. Records 26.039 Brazil 1980
WB 56 804 Al Jarreau This Time ‎(LP, Album) Warner Bros. Records WB 56 804 Netherlands 1980
K 56804 Al Jarreau This Time ‎(LP, Album) Warner Bros. Records K 56804 UK 1980
BSK 3434 Al Jarreau This Time ‎(LP, Album) Warner Bros. Records BSK 3434 Australia 1980



Comments (1)

xander
foobar2000 1.3.17 / Dynamic Range Meter 1.1.1log date: 2018-02-08 21:48:15--------------------------------------------------------------------------------Analyzed: Al Jarreau / This Time--------------------------------------------------------------------------------DR Peak RMS Duration Track--------------------------------------------------------------------------------DR15 -1.84 dB -19.73 dB 3:59 01-Never Givin' UpDR15 -1.99 dB -20.74 dB 3:45 02-Gimme What You GotDR15 -2.01 dB -21.41 dB 4:26 03-Love Is RealDR15 -2.21 dB -22.40 dB 5:27 04-AlonzoDR15 -2.91 dB -21.79 dB 4:18 05-(If I Could Only) Change Your MindDR16 -1.65 dB -20.27 dB 6:33 06-Spain (I Can Recall)DR16 -1.34 dB -20.73 dB 5:53 07-DistractedDR15 -1.45 dB -19.84 dB 4:15 08-Your Sweet LoveDR14 -5.26 dB -23.09 dB 3:42 09-(A Rhyme) This Time--------------------------------------------------------------------------------Number of tracks: 9Official DR value: DR15Samplerate: 44100 HzChannels: 2Bits per sample: 16Bitrate: 635 kbpsCodec: ALAC================================================================================

FLAC albums related Al Jarreau - This Time: